<?xml version="1.0" standalone="no"?>
<!DOCTYPE svg PUBLIC "-//W3C//DTD SVG 1.1//EN" "http://www.w3.org/Graphics/SVG/1.1/DTD/svg11.dtd" >
<svg xmlns="http://www.w3.org/2000/svg">
<metadata>Generated by IcoMoon</metadata>
<defs>
<font id="icomoon" horiz-adv-x="1024">
<font-face units-per-em="1024" ascent="960" descent="-64" />
<missing-glyph horiz-adv-x="1024" />
<glyph unicode="&#x20;" horiz-adv-x="512" d="" />
<glyph unicode="&#xe900;" glyph-name="arrow-right" d="M806.619 510.542h-806.619v-125.022h806.676l-246.058-268.862 80.126-87.568 383.255 418.908-383.255 418.911-80.126-87.568 246-268.799z" />
<glyph unicode="&#xe901;" glyph-name="cart-icon" d="M47.627 812.609h150.058l73.817-439.094c5.954-33.060 33.351-56.668 67.863-56.668h517.976c32.141 0 54.794 27.158 58.328 55.469l105.958 347.011c1.209 4.703 2.372 9.452 2.372 14.155 0 31.861-25.025 56.668-59.538 56.668l-533.42 0.046c-26.187 0-47.63-21.256-47.63-47.216s21.443-47.216 47.63-47.216h484.623l-86.934-283.294h-466.762l-76.189 456.799c-4.744 21.256-23.815 37.763-47.63 37.763h-190.52c-26.187 0-47.63-21.256-47.63-47.216s21.443-47.216 47.63-47.216l-0.003 0.006zM924.903 120.118c0 72.456-59.024 131.153-132.129 131.153s-132.129-58.696-132.129-131.153c0-72.456 60.276-131.153 132.129-131.153 71.801 0 132.129 58.696 132.129 131.153zM764.568 120.118c0 17.467 12.827 31.227 29.512 31.227s29.512-13.76 29.512-31.227c0-17.467-12.827-31.227-29.512-31.227s-29.512 13.76-29.512 31.227zM429.419-11.034c73.103 0 132.129 58.696 132.129 131.153s-59.024 131.153-132.129 131.153c-73.105 0-132.129-58.696-132.129-131.153s60.276-131.153 132.129-131.153zM429.419 151.345c15.382 0 29.512-13.76 29.512-31.227s-12.827-31.227-29.512-31.227c-16.685 0-29.512 13.76-29.512 31.227s14.13 31.227 29.512 31.227z" />
<glyph unicode="&#xe902;" glyph-name="delete" d="M222.333 737.81c-76.803-76.865-119.933-181.057-119.933-289.707 0-108.693 43.168-212.884 119.966-289.707s181.012-119.996 289.634-119.996c108.622 0 212.831 43.179 289.634 119.996s119.966 181.025 119.966 289.707c0 108.65-43.126 212.841-119.933 289.707-76.888 76.696-181.055 119.79-289.677 119.79s-212.787-43.094-289.677-119.79h0.022zM636.67 243.2l-124.67 124.415-124.67-124.415-80.13 80.201 124.67 124.415-124.304 124.782 80.13 80.201 124.304-124.782 124.67 124.415 80.13-80.201-124.67-124.415 124.441-124.782-79.901-79.835z" />
<glyph unicode="&#xe903;" glyph-name="email" d="M74.927 789.333c-41.512 0-74.927-33.415-74.927-74.927v-524.488c0-41.512 33.415-74.927 74.927-74.927h874.146c41.512 0 74.927 33.415 74.927 74.927v524.488c0 41.512-33.415 74.927-74.927 74.927h-874.146zM127.61 664.845c8.146 0.732 15.17-2.293 20.293-7.024l328.979-304.003c20.487-18.975 48.927-18.975 69.463 0l329.753 304.003c9.61 8.878 26.439 8.244 35.317-1.366s8.244-26.439-1.366-35.317l-186.543-172.094 186.143-165.463c11.122-8.244 12.976-26.39 3.707-36.732-9.219-10.293-27.463-10.488-36.878-0.341l-189.665 168.585-106.536-97.952c-38.781-35.756-98.634-35.854-137.366 0l-105.757 97.952-189.665-168.585c-9.415-10.146-27.658-9.951-36.878 0.341s-7.366 28.487 3.707 36.732l186.143 165.463-186.543 172.094c-7.317 6.341-10.341 17.122-7.463 26.342s11.561 16.342 21.122 17.366h0.031z" />
<glyph unicode="&#xe904;" glyph-name="facebook-icon" d="M757.78 959.787l-133.039 0.213c-149.465 0-246.056-98.913-246.056-252.008v-116.192h-133.765c-11.559 0-20.919-9.353-20.919-20.891v-168.35c0-11.537 9.371-20.88 20.919-20.88h133.765v-424.8c0-11.537 9.36-20.88 20.919-20.88h174.525c11.559 0 20.919 9.353 20.919 20.88v424.8h156.403c11.559 0 20.919 9.343 20.919 20.88l0.064 168.35c0 5.54-2.209 10.845-6.126 14.765s-9.254 6.125-14.803 6.125h-156.456v98.498c0 47.342 11.303 71.375 73.089 71.375l89.621 0.032c11.548 0 20.908 9.353 20.908 20.88v156.322c0 11.516-9.35 20.859-20.887 20.88z" />
<glyph unicode="&#xe905;" glyph-name="fb" d="M503.018-50.526c-275.328 0-498.526 223.198-498.526 498.526s223.198 498.526 498.526 498.526c275.328 0 498.526-223.198 498.526-498.526s-223.198-498.526-498.526-498.526zM503.018-23.579c260.446 0 471.579 211.133 471.579 471.579s-211.133 471.579-471.579 471.579c-260.446 0-471.579-211.133-471.579-471.579s211.133-471.579 471.579-471.579zM664.060 690.526h-349.033c-30.104 0-54.536-24.432-54.536-54.536v-349.033c0-30.104 24.432-54.536 54.536-54.536h349.033c30.104 0 54.536 24.432 54.536 54.536v349.033c0 30.104-24.432 54.536-54.536 54.536zM620.431 526.917h-21.815c-23.342 0-32.722-5.454-32.722-21.815v-32.722h54.536l-10.907-54.536h-43.629v-163.609h-54.536v163.609h-43.629v54.536h43.629v32.722c0 43.629 21.815 76.351 65.444 76.351 31.631 0 43.629-10.907 43.629-10.907v-43.629z" />
<glyph unicode="&#xe906;" glyph-name="gift-icon" d="M258.711 657.543c41.876 17.619 89.728-2.969 121.1-14.986 35.355-13.867 68.154-34.549 85.678-57.832l-34.177-14.507c-20.944 4.263-99.819-17.756-123.392-15.048-24.163 2.771-46.891 7.403-62.137 17.718-0.113 0.046-0.216 0.065-0.302 0.122l-0.090 0.212c-29.765 24.6-18.068 70.527 13.313 84.318l0.006 0.003zM573.309 791.082c31.719 12.994 72.882-10.495 69.901-48.995-5.994-22.399-18.856-42.264-30.451-57.52-14.427-18.838-85.055-60.28-96.54-78.307l-34.177-14.507c-4.575 28.779 3.331 66.74 17.916 101.805 12.035 31.258 38.376 82.524 73.343 97.523l0.007 0.003zM214.608 462.2l203.791 86.504 40.369-95.102-203.791-86.504-40.369 95.102zM431.985 554.471l95.102 40.369 164.358-387.203-95.102-40.369-164.358 387.203zM540.673 600.607l203.791 86.504 40.369-95.102-203.791-86.504-40.369 95.102zM294.708 367.929l169.826 72.087 118.222-278.514-169.826-72.087-118.222 278.514zM586.808 491.918l169.826 72.087 118.222-278.514-169.826-72.087-118.222 278.514zM1024 657.836c0-37.085-30.063-67.148-67.148-67.148s-67.148 30.063-67.148 67.148c0 37.085 30.063 67.148 67.148 67.148s67.148-30.063 67.148-67.148zM184.656 565.508c0-50.991-41.337-92.328-92.328-92.328s-92.328 41.337-92.328 92.328c0 50.991 41.337 92.328 92.328 92.328s92.328-41.337 92.328-92.328zM268.59 238.164c0-18.542-15.031-33.574-33.574-33.574s-33.574 15.031-33.574 33.574c0 18.542 15.031 33.574 33.574 33.574s33.574-15.031 33.574-33.574z" />
<glyph unicode="&#xe907;" d="M985.336 537.022l-417.68 0.020c-18.444 0-33.394-14.948-33.394-33.392v-133.43c0-18.44 14.95-33.392 33.392-33.392h235.212c-25.756-66.842-73.828-122.82-135.16-158.388l100.294-173.618c160.884 93.046 256 256.304 256 439.060 0 26.022-1.918 44.624-5.754 65.57-2.916 15.914-16.732 27.57-32.91 27.57z" />
<glyph unicode="&#xe908;" d="M512 136.348c-115.108 0-215.596 62.892-269.566 155.958l-173.612-100.068c88.35-153.124 253.858-256.238 443.178-256.238 92.874 0 180.508 25.006 256 68.584v0.238l-100.294 173.62c-45.876-26.608-98.964-42.094-155.706-42.094z" />
<glyph unicode="&#xe909;" d="M768 4.584v0.238l-100.294 173.62c-45.876-26.606-98.96-42.094-155.706-42.094v-200.348c92.874 0 180.512 25.006 256 68.584z" />
<glyph unicode="&#xe90a;" d="M200.348 448c0 56.738 15.484 109.82 42.086 155.694l-173.612 100.068c-43.818-75.254-68.822-162.65-68.822-255.762s25.004-180.508 68.822-255.762l173.612 100.068c-26.602 45.874-42.086 98.956-42.086 155.694z" />
<glyph unicode="&#xe90b;" d="M512 759.652c75.062 0 144.010-26.672 197.864-71.038 13.286-10.944 32.596-10.154 44.766 2.016l94.54 94.54c13.808 13.808 12.824 36.41-1.926 49.206-90.23 78.278-207.63 125.624-335.244 125.624-189.32 0-354.828-103.114-443.178-256.238l173.612-100.068c53.97 93.066 154.458 155.958 269.566 155.958z" />
<glyph unicode="&#xe90c;" d="M709.864 688.614c13.286-10.944 32.598-10.154 44.766 2.016l94.54 94.54c13.806 13.808 12.822 36.41-1.926 49.206-90.23 78.28-207.63 125.624-335.244 125.624v-200.348c75.060 0 144.010-26.672 197.864-71.038z" />
<glyph unicode="&#xe90d;" glyph-name="insta" d="M503.018-50.526c-275.328 0-498.526 223.198-498.526 498.526s223.198 498.526 498.526 498.526c275.328 0 498.526-223.198 498.526-498.526s-223.198-498.526-498.526-498.526zM503.018-23.579c260.446 0 471.579 211.133 471.579 471.579s-211.133 471.579-471.579 471.579c-260.446 0-471.579-211.133-471.579-471.579s211.133-471.579 471.579-471.579zM303.439 690.526c-23.794 0-42.947-19.153-42.947-42.947v-171.789h115.643c7.13 56.341 55.194 100.211 113.41 100.211s106.28-43.87 113.41-100.211h115.643v171.789c0 23.794-19.153 42.947-42.947 42.947h-372.211zM632.702 633.263c15.825 0 28.632-12.806 28.632-28.632s-12.806-28.632-28.632-28.632c-15.825 0-28.632 12.806-28.632 28.632s12.806 28.632 28.632 28.632zM489.544 547.368c-47.616 0-85.895-38.278-85.895-85.895s38.278-85.895 85.895-85.895c47.616 0 85.895 38.278 85.895 85.895s-38.278 85.895-85.895 85.895zM260.491 447.158v-171.789c0-23.794 19.153-42.947 42.947-42.947h372.211c23.794 0 42.947 19.153 42.947 42.947v171.789h-115.643c-7.13-56.341-55.194-100.211-113.41-100.211s-106.28 43.87-113.41 100.211h-115.643z" />
<glyph unicode="&#xe90e;" d="M136.533 712.533c-65.98 0-119.467-53.487-119.467-119.467v-278.318c0-65.98 53.487-119.467 119.467-119.467h750.933c65.98 0 119.467 53.487 119.467 119.467v278.318c0 65.98-53.487 119.467-119.467 119.467h-750.933zM136.533 729.6h750.933c75.405 0 136.533-61.128 136.533-136.533v-278.318c0-75.405-61.128-136.533-136.533-136.533h-750.933c-75.405 0-136.533 61.128-136.533 136.533v278.318c0 75.405 61.128 136.533 136.533 136.533z" />
<glyph unicode="&#xe90f;" d="M813.949 455.492c0-100.262-80.98-182.21-182.213-182.21-100.262 0-182.207 81.949-182.207 182.21 0 100.268 80.98 182.21 181.249 182.21 102.191 0 183.172-81.943 183.172-182.21z" />
<glyph unicode="&#xe910;" d="M388.948 637.583c-98.534-0.961-178.897-81.579-178.897-181.402 0-99.817 80.363-181.402 180.812-181.402 46.875 0 88.969 18.236 121.493 47.034 6.698 5.759 12.438 12.479 18.177 19.191h-37.306c-4.788 5.759-9.57 12.479-13.395 18.236h64.095c3.831 5.759 7.655 12.479 10.522 19.197h-85.139c-2.872 5.759-5.739 12.479-7.655 19.197h99.492c5.74 18.236 9.57 37.433 9.57 57.584 0 13.439-1.915 25.917-3.83 38.395h-110.972c0.958 6.719 2.867 12.477 4.783 19.197h99.491c-1.909 6.719-4.782 13.439-7.649 19.197h-84.187c2.867 6.713 6.697 12.477 10.522 19.19h64.095c-3.825 6.72-8.607 13.439-14.347 19.197h-35.397c5.74 6.72 11.48 12.479 18.178 18.236-31.573 29.754-74.623 47.030-121.5 47.030 0 1.921 0 1.921-0.957 1.921z" />
<glyph unicode="&#xe911;" d="M458.899 411.387l3.127 15.559c-1.043 0-3.127-0.915-5.211-0.915-7.291 0-8.327 3.664-7.291 5.49l6.254 32.040h11.452l3.121 17.391h-10.411l2.086 10.984h-20.827c0 0-12.495-60.414-12.495-67.732 0-10.982 7.291-15.564 16.659-15.564 6.246 0 11.452 1.833 13.537 2.749z" />
<glyph unicode="&#xe912;" d="M459.94 440.476c0-25.47 18.26-31.838 33.636-31.838 14.417 0 20.184 2.731 20.184 2.731l3.843 17.281c0 0-10.57-4.546-20.179-4.546-21.146 0-17.298 14.551-17.298 14.551h39.401c0 0 2.886 11.824 2.886 16.37 0 11.824-6.729 26.381-27.875 26.381-20.178 1.815-34.597-18.192-34.597-40.931zM493.576 466.851c10.576 0 8.651-11.824 8.651-12.735h-21.146c0 0.911 1.925 12.735 12.495 12.735z" />
<glyph unicode="&#xe913;" d="M613.855 411.452l3.62 20.613c0 0-9.053-4.684-15.39-4.684-12.677 0-18.109 10.306-18.109 21.557 0 22.489 10.865 34.672 23.542 34.672 9.057 0 16.296-5.622 16.296-5.622l2.719 19.674c0 0-10.865 4.684-20.828 4.684-20.821 0-41.644-18.736-41.644-54.346 0-23.427 10.863-39.362 32.593-39.362 7.245 0 17.202 2.814 17.202 2.814z" />
<glyph unicode="&#xe914;" d="M350.695 481.522c-13.458 0-23.072-3.598-23.072-3.598l-2.88-15.295c0 0 8.653 3.598 21.142 3.598 6.73 0 12.497-0.901 12.497-6.299 0-3.598-0.957-4.499-0.957-4.499h-8.653c-16.338 0-34.6-6.299-34.6-26.993 0-16.195 11.534-19.799 18.262-19.799 13.452 0 19.219 8.101 20.181 8.101l-0.963-7.2h17.307l7.685 49.488c0 21.594-19.219 22.495-25.948 22.495zM354.539 441.030c0-2.697-1.924-17.091-13.458-17.091-5.767 0-7.685 4.498-7.685 7.194 0 4.498 2.88 10.798 17.299 10.798 2.88-0.901 3.843-0.901 3.843-0.901z" />
<glyph unicode="&#xe915;" d="M397.648 408.643c4.565 0 27.398-1.017 27.398 26.411 0 25.393-21.918 20.315-21.918 30.47 0 5.077 3.656 7.11 10.051 7.11 2.737 0 12.782-1.016 12.782-1.016l2.743 18.282c0 0-6.395 2.035-17.354 2.035-13.701 0-27.398-6.094-27.398-26.411 0-23.36 22.833-21.327 22.833-30.47 0-6.094-6.393-7.112-10.958-7.112-8.223 0-16.445 3.050-16.445 3.050l-2.737-18.282c0.915-2.035 5.48-4.068 21.005-4.068z" />
<glyph unicode="&#xe916;" d="M773.498 502.346l-3.735-25.818c0 0-7.477 9.559-17.755 9.559-16.82 0-31.768-21.033-31.768-45.893 0-15.297 7.471-31.556 23.361-31.556 11.212 0 17.755 7.652 17.755 7.652l-0.936-6.695h18.685l14.020 91.793-19.626 0.958zM765.091 451.667c0-10.516-4.671-23.904-14.954-23.904-6.535 0-10.277 5.737-10.277 15.302 0 15.297 6.543 24.856 14.954 24.856 6.543 0 10.277-4.779 10.277-16.253z" />
<glyph unicode="&#xe917;" d="M248.86 408.638l11.357 70.283 1.896-70.283h13.253l24.605 70.283-10.411-70.283h19.881l15.142 93.708h-31.232l-18.933-57.594-0.948 57.594h-27.447l-15.148-93.708z" />
<glyph unicode="&#xe918;" d="M545.315 409.562c6.254 30.445 7.29 55.349 21.869 50.738 2.084 11.993 5.204 16.604 7.288 21.223h-4.163c-9.372 0-16.662-11.070-16.662-11.070l2.084 10.146h-19.783l-13.536-71.96h22.903v0.924z" />
<glyph unicode="&#xe919;" d="M663.037 481.522c-13.451 0-23.060-3.598-23.060-3.598l-2.879-15.295c0 0 8.649 3.598 21.131 3.598 6.726 0 12.49-0.901 12.49-6.299 0-3.598-0.956-4.499-0.956-4.499h-8.649c-16.329 0-34.582-6.299-34.582-26.993 0-16.195 11.528-19.799 18.252-19.799 13.445 0 19.208 8.101 20.171 8.101l-0.962-7.2h17.298l7.681 49.488c0.961 21.594-19.208 22.495-25.934 22.495zM667.84 441.030c0-2.697-1.924-17.091-13.451-17.091-5.764 0-7.687 4.498-7.687 7.194 0 4.498 2.883 10.798 17.29 10.798 2.885-0.901 2.885-0.901 3.847-0.901z" />
<glyph unicode="&#xe91a;" d="M701.502 409.562c6.246 30.445 7.282 55.349 21.86 50.738 2.084 11.993 5.204 16.604 7.29 21.223h-4.163c-9.374 0-16.662-11.070-16.662-11.070l2.084 10.146h-19.783l-13.536-71.96h22.91v0.924z" />
<glyph unicode="&#xe91b;" glyph-name="phone" d="M161.47 959.055c-7.081 1.438-15.601 1.438-21.244-1.438-76.454-29.764-124.641-138.803-135.982-213.881-35.406-243.579 157.231-454.642 334.261-593.377 157.231-123.202 458.834-325.736 637.309-130.283 22.683 24.065 49.568 59.471 48.13 94.877-4.26 59.471-59.471 101.958-101.958 134.543-32.585 24.065-100.576 90.617-143.069 89.235-38.227-1.438-62.292-41.048-86.413-65.17l-42.487-42.487c-7.081-7.081-97.698 52.39-107.657 59.471-36.845 24.065-72.251 51.007-103.397 80.714-31.146 29.764-59.471 62.292-83.536 96.316-7.081 9.903-65.17 96.316-59.471 103.397 0 0 49.568 53.829 63.731 75.072 29.764 45.308 52.39 80.714 18.422 134.543-12.724 19.805-28.325 35.406-45.308 52.39-29.764 28.325-59.471 58.089-93.495 82.153-18.367 14.218-49.513 39.666-77.838 43.926l0.001-0.001z" />
<glyph unicode="&#xe91c;" glyph-name="thumbs-down" d="M10.089 414.501c0-42.056 33.65-75.047 76.412-75.047l229.295-0.056c12.21 0 55.031-18.016 21.381-69.080-21.381-39.015-21.381-186.183-21.381-186.183 0-42 33.65-74.991 76.412-74.991 42.821 0 76.469 32.992 76.469 75.047 0 219.174 213.989 285.271 213.989 285.271v390.325c-97.852 33.048-122.271 90.079-244.601 90.079h-229.295c-42.821 0-76.412-33.048-76.412-75.047 0-18.016 6.134-33.048 15.306-45.040-42.821 0-76.412-33.048-76.412-75.047 0-18.016 6.134-36.032 18.344-51.064-30.553-11.992-48.897-39.015-48.897-69.080 0-18.016 6.134-36.032 18.344-51.064-27.573-9.008-48.954-36.032-48.954-69.024v0.002zM876.923 301.714h147.077v504.433h-147.133c-50.038 0-88.269-41.559-88.269-89.014l0.055-326.405c0-50.46 38.231-89.014 88.269-89.014h0.001z" />
<glyph unicode="&#xe91d;" glyph-name="thumbs-up" d="M1013.911 481.499c0 42.056-33.65 75.047-76.412 75.047l-229.295 0.056c-12.21 0-55.031 18.016-21.381 69.080 21.381 39.015 21.381 186.183 21.381 186.183 0 42-33.65 74.991-76.412 74.991-42.821 0-76.469-32.992-76.469-75.047 0-219.174-213.989-285.271-213.989-285.271v-390.325c97.852-33.048 122.271-90.079 244.601-90.079h229.295c42.821 0 76.412 33.048 76.412 75.047 0 18.016-6.134 33.048-15.306 45.040 42.821 0 76.412 33.048 76.412 75.047 0 18.016-6.134 36.032-18.344 51.064 30.553 11.992 48.897 39.015 48.897 69.080 0 18.016-6.134 36.032-18.344 51.064 27.573 9.008 48.954 36.032 48.954 69.024v-0.002zM147.077 594.286h-147.077v-504.433h147.133c50.038 0 88.269 41.559 88.269 89.014l-0.055 326.405c0 50.46-38.231 89.014-88.269 89.014h-0.001z" />
<glyph unicode="&#xe91e;" glyph-name="user-icon" d="M971.034 12.494c0 204.825-143.726 285.017-269.393 331.85-25.387 9.88-42.279 33.301-42.279 60.433v72.771c43.507 40.771 70.073 97.542 70.073 161.681v98.699c0 122.12-97.866 222.072-217.437 222.072s-217.437-99.952-217.437-222.072v-98.699c0-64.144 26.566-120.916 68.846-161.644v-72.771c0-27.132-16.892-50.603-42.279-60.433-124.435-46.892-268.161-127.087-268.161-331.899 0-41.927 33.833-76.482 74.885-76.482h769.475c41.099 0 73.706 34.554 73.706 76.482l0.002 0.012zM391.201 737.943c0 67.855 54.359 123.373 120.799 123.373s120.799-55.518 120.799-123.373v-98.699c0-67.855-54.359-123.373-120.799-123.373s-120.799 55.518-120.799 123.373v98.699zM149.604 34.714c7.267 103.614 66.439 165.296 205.358 217.162 62.806 23.421 105.085 85.108 105.085 152.958v18.506c16.892-3.711 33.833-6.169 51.953-6.169s35.012 2.458 51.953 6.169v-18.506c0-67.855 42.279-129.542 105.085-152.958 138.918-51.807 198.085-113.494 205.358-217.162h-724.791z" />
<glyph unicode="&#xe91f;" d="M50.568 960h922.864c27.928 0 50.568-22.64 50.568-50.568v-922.864c0-27.928-22.64-50.568-50.568-50.568h-922.864c-27.928 0-50.568 22.64-50.568 50.568v922.864c0 27.928 22.64 50.568 50.568 50.568z" />
<glyph unicode="&#xe920;" d="M0 441.679c27.929-137.18 310.733-490.924 530.963-505.679 0 0-160.132 0-480.395 0v0c-27.928 0-50.568 22.64-50.568 50.568 0 204.79 0 356.493 0 455.111z" />
<glyph unicode="&#xe921;" d="M682.667 292.078c0 73.332-51.457 102.043-96.449 118.811-9.089 3.537-15.137 11.923-15.137 21.637v26.054c15.577 14.597 25.088 34.922 25.088 57.886v35.337c0 43.722-35.038 79.507-77.848 79.507s-77.848-35.785-77.848-79.507v-35.337c0-22.965 9.511-43.291 24.648-57.873v-26.054c0-9.714-6.048-18.117-15.137-21.637-44.551-16.788-96.008-45.5-96.008-118.828 0-15.011 12.113-27.382 26.811-27.382h275.491c14.715 0 26.389 12.371 26.389 27.382l0.001 0.004zM475.072 551.807c0 24.294 19.462 44.171 43.249 44.171s43.249-19.877 43.249-44.171v-35.337c0-24.294-19.462-44.171-43.249-44.171s-43.249 19.877-43.249 44.171v35.337zM388.574 300.033c2.602 37.096 23.787 59.18 73.523 77.749 22.486 8.385 37.623 30.471 37.623 54.763v6.626c6.048-1.329 12.113-2.209 18.6-2.209s12.535 0.88 18.6 2.209v-6.626c0-24.294 15.137-46.379 37.623-54.763 49.736-18.548 70.919-40.634 73.523-77.749h-259.493z" />
<glyph unicode="&#xe922;" d="M136.533 712.533c-65.98 0-119.467-53.487-119.467-119.467v-279.568c0-65.98 53.487-119.467 119.467-119.467h750.933c65.98 0 119.467 53.487 119.467 119.467v279.568c0 65.98-53.487 119.467-119.467 119.467h-750.933zM136.533 729.6h750.933c75.405 0 136.533-61.128 136.533-136.533v-279.568c0-75.405-61.128-136.533-136.533-136.533h-750.933c-75.405 0-136.533 61.128-136.533 136.533v279.568c0 75.405 61.128 136.533 136.533 136.533z" />
<glyph unicode="&#xe923;" d="M762.582 547.632h-37.040c-11.504 0-20.124-3.113-25.12-14.555l-71.258-160.38h50.348c0 0 8.25 21.564 10.131 26.303 5.474 0 54.45-0.123 61.435-0.123 1.388-6.119 5.783-26.18 5.783-26.18h44.519l-38.798 174.935zM703.429 434.766c3.978 10.061 19.090 48.941 19.090 48.941-0.231-0.475 3.917 10.122 6.384 16.717l3.254-15.107c0 0 9.16-41.748 11.087-50.551h-39.816zM632.526 429.966c-0.355-36.364-33.061-59.845-83.486-59.845-21.496 0.23-42.221 4.432-53.478 9.34l6.739 39.186 6.199-2.822c15.791-6.534 25.968-9.156 45.182-9.156 13.801 0 28.559 5.383 28.667 17.132 0.062 7.669-6.199 13.113-24.873 21.687-18.181 8.389-42.283 22.407-41.974 47.56 0.231 34.033 33.663 57.759 81.065 57.759 18.566 0 33.431-3.773 42.961-7.362l-6.507-37.929-4.349 2.040c-8.79 3.528-20.17 6.948-35.899 6.702-18.736 0-27.464-7.791-27.464-15.092-0.062-8.144 10.177-13.604 26.924-21.687 27.711-12.469 40.54-27.622 40.294-47.514zM211.302 545.776l0.601 3.528h74.388c10.008-0.353 18.073-3.528 20.91-14.187l16.145-77.345c-15.914 40.429-54.157 74.109-112.045 88.004zM428.205 547.632l-75.529-174.705-50.779-0.061-42.946 145.948c30.903-19.647 57.164-50.796 66.431-72.544l5.012-18.036 46.986 119.399h50.826zM447.604 547.816h47.958l-30.008-175.057h-47.942l29.993 175.057z" />
<glyph unicode="&#xe924;" glyph-name="youtube" d="M503.018-50.526c-275.328 0-498.526 223.198-498.526 498.526s223.198 498.526 498.526 498.526c275.328 0 498.526-223.198 498.526-498.526s-223.198-498.526-498.526-498.526zM503.018-23.579c260.446 0 471.579 211.133 471.579 471.579s-211.133 471.579-471.579 471.579c-260.446 0-471.579-211.133-471.579-471.579s211.133-471.579 471.579-471.579zM641.071 609.684h-303.054c-42.81 0-77.526-35.397-77.526-79.046v-165.277c0-43.649 34.716-79.046 77.526-79.046h303.054c42.81 0 77.526 35.397 77.526 79.046v165.277c0 43.649-34.716 79.046-77.526 79.046zM508.925 412.070l-68.716-35.93v143.719l137.432-71.86-68.716-35.93z" />
<glyph unicode="&#xe925;" glyph-name="iconfinder_translate_326714" horiz-adv-x="1138" d="M0 152.178v-216.178h216.178l625.778 631.467-216.178 216.178-625.778-631.467zM1006.933 732.444c22.756 22.756 22.756 56.889 0 79.644l-130.844 130.844c-22.756 22.756-56.889 22.756-79.644 0l-102.4-102.4 216.178-216.178 96.711 108.089zM512 49.778l-113.778-113.778h739.556v113.778h-625.778z" />
</font>
</defs>
</svg>
